kgf sarkar Manikarnika star trek discovery thakrey Xxx kedarnath thackeray malayalam the accidental prime minister supernatural evo aquaman telugu odiyan the flash why cheat india great british bake off s09e10 vikings tushy 18.12 1080p.mp4-ktr charlie chaplin 2 1080P Hindi mirzapur ettv mr majnu the grand tour 2018 ita Adanga Maru Tin Star etmovies dtone uri EVO malayalam 2018 movies AQUAMAN ita Bumblebee ethd ITA zero etrg venom f2 1080p 2018 maari 2 Game Of Thrones viswasam TamilRockers Kannada simmba Kannada ddr simbha tushyraw 1080p.mp4-ktr mortal engines simba petta DTOne uri the surgical strike kung fu the legend Young justice tamil robot 2.0 it brazzers it 2017 2.0 thakre Njan Prakashan glass fgt bohemian rhapsody Star Trek Discovery S02E02 
Warning! Do not Download Without a VPN!
Your IP Address is .   Location is
Download and surf securely, stream unlimited and protect your personal data!
We strongly recommend using SpyOFF VPN!
Become Anonymous with SpyOFF
ETTV Recommended TV Shows
Greys.Anatomy.S15E14.HDTV.x264-KILLERS[ettv] torrent
The.Magicians.US.S04E05.WEB.x264-TBS[ettv] torrent
Survivor.S38E01.HDTV.x264-WRCR torrent
Chicago.Fire.S07E15.WEBRip.x264-PBS[ettv] torrent
Chicago.PD.S06E15.WEBRip.x264-PBS[ettv] torrent
Suits.S08E15.WEBRip.x264-PBS[ettv] torrent

ETTV Recommended SD
Ben.is.Back.2019.HDRip.XViD-ETRG torrent
Spider-Man.Into the Spider-Verse.2019.HDRip.XViD-ETRG torrent
Captain.Morten.and.the.Spider.Queen.2019.HDRip.XviD.AC3-EVO torrent
Dirty.Dealing.2019.HDRip.XviD.AC3-EVO torrent

ETTV Recommended HD
Green.Book.2019.1080p.WEB-DL.H264.AC3-EVO[EtHD] torrent
Instant.Family.2019.1080p.WEB-DL.H264.AC3-EVO[EtHD] torrent
Spider-Man.Into the Spider-Verse.2019.1080p.WEB-DL.H264.AC3-EVO[EtHD] torrent
Creed.II.2018.720p.BluRay.x264-DTS-HDChina[EtHD] torrent

ETTV Recommended UHD
The.Silence.of.the.Lambs.1991.2160p.UHDRip.x265.HDR.DTS-HD.MA.5.1-DTOne torrent
Robin.Hood.2018.UHD.BluRay.2160p.x265.Atmos.7.1-DTOne torrent
Big Pacific Season One 2018.2160p.UHD.BluRay.x265.SDR.FLAC.2.0-DTOne torrent
Close.Encounters.of.the.Third.Kind.1977.DC.4K.HDR.2160p.BDRip Ita Eng x265-NAHOM torrent

ETTV Recommended Cam
How to Train Your Dragon 3 2018 NEW 720p HDCAM-1XBET torrent
Happy Death Day 2U.2019.HDCAM.XViD.AC3-ETRG torrent
What Men Want 2019 HDCAM x264 AC3 MP4KiNG torrent
Alita Battle Angel 2019.HDCAM.V2.XViD.AC3-ETRG torrent

ETTV Recommended Foreign
 Daas Dev.2018.1080p.WEB-DL.AVC.AAC.DTOne torrent
Spider-Man: Into the Spider-Verse (2018)[720p - HDRip - HQ Audios [Tamil + Telugu + Hindi + Eng] - x264 - 1.2GB] torrent
Dance with the Devil (1997) UNRATED 720p BluRay x264 Eng Subs [Dual Audio] [Hindi DD 2.0 - English 5.1] Exclusive By -=!Dr.STAR!=- torrent
Skjelvet 2018 720p BluRay DD5.1 x264-NorTV[EtHD] torrent


Download Torrent " The Grand Tour S03E05 (1080p AMZN WEB-DL x265 HEVC 10bit AAC 5.1 Joy) [UTR..."

IMDB Details
Description:

N/A

Genre:

N/A

Download Torrent (Magnet)
Download Torrent (File)
Seeds: 400
Leechers: 35
Completed: 4,214 
Last Checked: 12-02-2019 15:41:08


Loading...
Details
Title: The Grand Tour S03E05 (1080p AMZN WEB-DL x265 HEVC 10bit AAC 5.1 Joy) [UTR...
Description:
[align=center]





Media Information
General
Format                                   : Matroska
Format version                           : Version 4 / Version 2
File size                                : 565 MiB
Duration                                 : 58 min 2 s
Overall bit rate                         : 1 360 kb/s
Movie name                               : The Grand Tour S03E05 An Itchy Urus  (1080p x265 10bit FS Joy)
Encoded date                             : UTC 2019-02-11 11:08:14
Writing application                      : mkvmerge v28.2.0 ('The Awakening') 64-bit
Writing library                          : libebml v1.3.6 + libmatroska v1.4.9
Writing frontend                         : StaxRip v2.0, a JoyBell Encode

Video
ID                                       : 1
Format                                   : HEVC
Format/Info                              : High Efficiency Video Coding
Format profile                           : Main [email protected]@Main
Codec ID                                 : V_MPEGH/ISO/HEVC
Duration                                 : 58 min 2 s
Bit rate                                 : 1 201 kb/s
Width                                    : 1 920 pixels
Height                                   : 1 080 pixels
Display aspect ratio                     : 16:9
Frame rate mode                          : Constant
Frame rate                               : 25.000 FPS
Color space                              : YUV
Chroma subsampling                       : 4:2:0
Bit depth                                : 10 bits
Bits/(Pixel*Frame)                       : 0.023
Stream size                              : 499 MiB (88%)
Writing library                          : x265 2.9+15-81373aab81df:[Windows][MSVC 1916][64 bit] 10bit
Encoding settings                        : cpuid=1111039 / frame-threads=3 / numa-pools=12 / wpp / no-pmode / no-pme / no-psnr / ssim / log-level=2 / input-csp=1 / input-res=1920x1080 / interlace=0 / total-frames=87053 / level-idc=0 / high-tier=1 / uhd-bd=0 / ref=4 / no-allow-non-conformance / no-repeat-headers / annexb / no-aud / no-hrd / info / hash=0 / no-temporal-layers / open-gop / min-keyint=25 / keyint=250 / gop-lookahead=0 / bframes=8 / b-adapt=2 / b-pyramid / bframe-bias=0 / rc-lookahead=80 / lookahead-slices=4 / scenecut=40 / radl=0 / no-splice / no-intra-refresh / ctu=64 / min-cu-size=8 / no-rect / no-amp / max-tu-size=32 / tu-inter-depth=1 / tu-intra-depth=1 / limit-tu=0 / rdoq-level=2 / dynamic-rd=0.00 / ssim-rd / signhide / no-tskip / nr-intra=0 / nr-inter=0 / no-constrained-intra / strong-intra-smoothing / max-merge=3 / limit-refs=3 / limit-modes / me=3 / subme=3 / merange=57 / temporal-mvp / weightp / no-weightb / no-analyze-src-pics / deblock=0:0 / sao / no-sao-non-deblock / rd=4 / no-early-skip / rskip / no-fast-intra / no-tskip-fast / no-cu-lossless / no-b-intra / no-splitrd-skip / rdpenalty=0 / psy-rd=0.00 / psy-rdoq=1.00 / no-rd-refine / no-lossless / cbqpoffs=0 / crqpoffs=0 / rc=abr / bitrate=1200 / qcomp=0.60 / qpstep=4 / stats-write=0 / stats-read=2 / cplxblur=20.0 / qblur=0.5 / ipratio=1.40 / pbratio=1.30 / aq-mode=1 / aq-strength=0.80 / cutree / zone-count=0 / no-strict-cbr / qg-size=32 / no-rc-grain / qpmax=69 / qpmin=0 / no-const-vbv / sar=0 / overscan=0 / videoformat=5 / range=0 / colorprim=2 / transfer=2 / colormatrix=1 / chromaloc=0 / display-window=0 / max-cll=0,0 / min-luma=0 / max-luma=1023 / log2-max-poc-lsb=8 / vui-timing-info / vui-hrd-info / slices=1 / no-opt-qp-pps / no-opt-ref-list-length-pps / multi-pass-opt-rps / scenecut-bias=0.05 / no-opt-cu-delta-qp / no-aq-motion / no-hdr / no-hdr-opt / no-dhdr10-opt / no-idr-recovery-sei / analysis-reuse-level=10 / scale-factor=0 / refine-intra=0 / refine-inter=0 / refine-mv=0 / limit-sao / ctu-info=0 / no-lowpass-dct / refine-mv-type=0 / copy-pic=1 / max-ausize-factor=1.0 / no-dynamic-refine / no-single-sei
Default                                  : Yes
Forced                                   : No
Color range                              : Limited
Matrix coefficients                      : BT.709

Audio
ID                                       : 2
Format                                   : AAC
Format/Info                              : Advanced Audio Codec
Format profile                           : HE-AAC / LC
Codec ID                                 : A_AAC
Duration                                 : 58 min 2 s
Bit rate                                 : 152 kb/s
Channel(s)                               : 6 channels
Channel positions                        : Front: L C R, Side: L R, LFE
Sampling rate                            : 48.0 kHz / 24.0 kHz
Frame rate                               : 23.438 FPS (1024 spf)
Compression mode                         : Lossy
Delay relative to video                  : 31 ms
Stream size                              : 63.2 MiB (11%)
Language                                 : English
Default                                  : No
Forced                                   : No

Subtitle #1
ID                                       : 3
Format                                   : UTF-8
Codec ID                                 : S_TEXT/UTF8
Codec ID/Info                            : UTF-8 Plain Text
Duration                                 : 57 min 18 s
Bit rate                                 : 93 b/s
Count of elements                        : 1039
Stream size                              : 39.3 KiB (0%)
Language                                 : English
Default                                  : No
Forced                                   : No

Subtitle #2
ID                                       : 4
Format                                   : UTF-8
Codec ID                                 : S_TEXT/UTF8
Codec ID/Info                            : UTF-8 Plain Text
Duration                                 : 57 min 18 s
Bit rate                                 : 93 b/s
Count of elements                        : 1039
Stream size                              : 39.3 KiB (0%)
Language                                 : English
Default                                  : No
Forced                                   : No

Subtitle #3
ID                                       : 5
Format                                   : UTF-8
Codec ID                                 : S_TEXT/UTF8
Codec ID/Info                            : UTF-8 Plain Text
Duration                                 : 57 min 8 s
Bit rate                                 : 148 b/s
Count of elements                        : 935
Stream size                              : 62.3 KiB (0%)
Language                                 : Arabic
Default                                  : No
Forced                                   : No

Subtitle #4
ID                                       : 6
Format                                   : UTF-8
Codec ID                                 : S_TEXT/UTF8
Codec ID/Info                            : UTF-8 Plain Text
Duration                                 : 57 min 8 s
Bit rate                                 : 78 b/s
Count of elements                        : 938
Stream size                              : 33.0 KiB (0%)
Language                                 : Chinese
Default                                  : No
Forced                                   : No

Subtitle #5
ID                                       : 7
Format                                   : UTF-8
Codec ID                                 : S_TEXT/UTF8
Codec ID/Info                            : UTF-8 Plain Text
Duration                                 : 57 min 8 s
Bit rate                                 : 78 b/s
Count of elements                        : 938
Stream size                              : 33.0 KiB (0%)
Language                                 : Chinese
Default                                  : No
Forced                                   : No

Subtitle #6
ID                                       : 8
Format                                   : UTF-8
Codec ID                                 : S_TEXT/UTF8
Codec ID/Info                            : UTF-8 Plain Text
Duration                                 : 57 min 8 s
Bit rate                                 : 88 b/s
Count of elements                        : 922
Stream size                              : 37.0 KiB (0%)
Language                                 : Danish
Default                                  : No
Forced                                   : No

Subtitle #7
ID                                       : 9
Format                                   : UTF-8
Codec ID                                 : S_TEXT/UTF8
Codec ID/Info                            : UTF-8 Plain Text
Duration                                 : 56 min 15 s
Bit rate                                 : 84 b/s
Count of elements                        : 763
Stream size                              : 34.7 KiB (0%)
Language                                 : German
Default                                  : No
Forced                                   : No

Subtitle #8
ID                                       : 10
Format                                   : UTF-8
Codec ID                                 : S_TEXT/UTF8
Codec ID/Info                            : UTF-8 Plain Text
Duration                                 : 56 min 24 s
Bit rate                                 : 90 b/s
Count of elements                        : 913
Stream size                              : 37.4 KiB (0%)
Language                                 : Spanish
Default                                  : No
Forced                                   : No

Subtitle #9
ID                                       : 11
Format                                   : UTF-8
Codec ID                                 : S_TEXT/UTF8
Codec ID/Info                            : UTF-8 Plain Text
Duration                                 : 56 min 24 s
Bit rate                                 : 90 b/s
Count of elements                        : 913
Stream size                              : 37.4 KiB (0%)
Language                                 : Spanish
Default                                  : No
Forced                                   : No

Subtitle #10
ID                                       : 12
Format                                   : UTF-8
Codec ID                                 : S_TEXT/UTF8
Codec ID/Info                            : UTF-8 Plain Text
Duration                                 : 57 min 8 s
Bit rate                                 : 83 b/s
Count of elements                        : 923
Stream size                              : 35.1 KiB (0%)
Language                                 : Finnish
Default                                  : No
Forced                                   : No

Subtitle #11
ID                                       : 13
Format                                   : UTF-8
Codec ID                                 : S_TEXT/UTF8
Codec ID/Info                            : UTF-8 Plain Text
Duration                                 : 57 min 8 s
Bit rate                                 : 88 b/s
Count of elements                        : 920
Stream size                              : 36.9 KiB (0%)
Language                                 : French
Default                                  : No
Forced                                   : No

Subtitle #12
ID                                       : 14
Format                                   : UTF-8
Codec ID                                 : S_TEXT/UTF8
Codec ID/Info                            : UTF-8 Plain Text
Duration                                 : 57 min 8 s
Bit rate                                 : 237 b/s
Count of elements                        : 938
Stream size                              : 99.6 KiB (0%)
Language                                 : Hindi
Default                                  : No
Forced                                   : No

Subtitle #13
ID                                       : 15
Format                                   : UTF-8
Codec ID                                 : S_TEXT/UTF8
Codec ID/Info                            : UTF-8 Plain Text
Duration                                 : 57 min 8 s
Bit rate                                 : 80 b/s
Count of elements                        : 921
Stream size                              : 33.7 KiB (0%)
Language                                 : Indonesian
Default                                  : No
Forced                                   : No

Subtitle #14
ID                                       : 16
Format                                   : UTF-8
Codec ID                                 : S_TEXT/UTF8
Codec ID/Info                            : UTF-8 Plain Text
Duration                                 : 56 min 24 s
Bit rate                                 : 84 b/s
Count of elements                        : 911
Stream size                              : 34.8 KiB (0%)
Language                                 : Italian
Default                                  : No
Forced                                   : No

Subtitle #15
ID                                       : 17
Format                                   : UTF-8
Codec ID                                 : S_TEXT/UTF8
Codec ID/Info                            : UTF-8 Plain Text
Duration                                 : 57 min 8 s
Bit rate                                 : 109 b/s
Count of elements                        : 938
Stream size                              : 45.8 KiB (0%)
Language                                 : Korean
Default                                  : No
Forced                                   : No

Subtitle #16
ID                                       : 18
Format                                   : UTF-8
Codec ID                                 : S_TEXT/UTF8
Codec ID/Info                            : UTF-8 Plain Text
Duration                                 : 56 min 24 s
Bit rate                                 : 86 b/s
Count of elements                        : 915
Stream size                              : 35.9 KiB (0%)
Language                                 : Norwegian Bokmal
Default                                  : No
Forced                                   : No

Subtitle #17
ID                                       : 19
Format                                   : UTF-8
Codec ID                                 : S_TEXT/UTF8
Codec ID/Info                            : UTF-8 Plain Text
Duration                                 : 57 min 8 s
Bit rate                                 : 81 b/s
Count of elements                        : 921
Stream size                              : 33.9 KiB (0%)
Language                                 : Dutch
Default                                  : No
Forced                                   : No

Subtitle #18
ID                                       : 20
Format                                   : UTF-8
Codec ID                                 : S_TEXT/UTF8
Codec ID/Info                            : UTF-8 Plain Text
Duration                                 : 57 min 12 s
Bit rate                                 : 84 b/s
Count of elements                        : 923
Stream size                              : 35.3 KiB (0%)
Language                                 : Polish
Default                                  : No
Forced                                   : No

Subtitle #19
ID                                       : 21
Format                                   : UTF-8
Codec ID                                 : S_TEXT/UTF8
Codec ID/Info                            : UTF-8 Plain Text
Duration                                 : 56 min 24 s
Bit rate                                 : 92 b/s
Count of elements                        : 909
Stream size                              : 38.0 KiB (0%)
Language                                 : Portuguese
Default                                  : No
Forced                                   : No

Subtitle #20
ID                                       : 22
Format                                   : UTF-8
Codec ID                                 : S_TEXT/UTF8
Codec ID/Info                            : UTF-8 Plain Text
Duration                                 : 57 min 8 s
Bit rate                                 : 165 b/s
Count of elements                        : 934
Stream size                              : 69.3 KiB (0%)
Language                                 : Russian
Default                                  : No
Forced                                   : No

Subtitle #21
ID                                       : 23
Format                                   : UTF-8
Codec ID                                 : S_TEXT/UTF8
Codec ID/Info                            : UTF-8 Plain Text
Duration                                 : 57 min 8 s
Bit rate                                 : 89 b/s
Count of elements                        : 923
Stream size                              : 37.6 KiB (0%)
Language                                 : Swedish
Default                                  : No
Forced                                   : No

Subtitle #22
ID                                       : 24
Format                                   : UTF-8
Codec ID                                 : S_TEXT/UTF8
Codec ID/Info                            : UTF-8 Plain Text
Duration                                 : 57 min 8 s
Bit rate                                 : 260 b/s
Count of elements                        : 938
Stream size                              : 109 KiB (0%)
Language                                 : Tamil
Default                                  : No
Forced                                   : No

Subtitle #23
ID                                       : 25
Format                                   : UTF-8
Codec ID                                 : S_TEXT/UTF8
Codec ID/Info                            : UTF-8 Plain Text
Duration                                 : 57 min 8 s
Bit rate                                 : 241 b/s
Count of elements                        : 938
Stream size                              : 101 KiB (0%)
Language                                 : Telugu
Default                                  : No
Forced                                   : No

Subtitle #24
ID                                       : 26
Format                                   : UTF-8
Codec ID                                 : S_TEXT/UTF8
Codec ID/Info                            : UTF-8 Plain Text
Duration                                 : 56 min 24 s
Bit rate                                 : 85 b/s
Count of elements                        : 914
Stream size                              : 35.1 KiB (0%)
Language                                 : Turkish
Default                                  : No
Forced                                   : No

Menu
00:00:00.000                             : en:Amazon Original
00:00:05.000                             : en:Title Sequence
00:00:55.000                             : en:Coming up on this week's show
00:01:34.000                             : en:James tests the A110 by Alpine
00:09:01.000                             : en:How does the A110 measure up on the lap-board?
00:11:37.000                             : en:Conversation Street
00:22:26.000                             : en:Jeremy goes to Sweden to test the new Lamborghini Urus
00:30:01.000                             : en:A frozen lake race challenge
00:35:07.000                             : en:A brief history lesson from Richard Hammond
00:37:55.000                             : en:Jim Clark could race anything
00:43:20.000                             : en:What was is that made Clark so good?
00:46:35.000                             : en:Attempting the Formula One world title
00:49:55.000                             : en:The fateful day in 1968
00:53:35.000                             : en:A gentleman and a gentle man
00:56:22.000                             : en:Reflecting on Jim Clark's legacy
00:57:26.000                             : en:End Credits

Source Information
Release: The.Grand.Tour.2016.S03E05.An.Itchy.Urus.1080p.AMZN.WEBRip.DDP5.1.x264-QOQ[rarbg]  (3.97 GB)
[/align]
Category:TV > HEVC/x265
Lang:English  English
Total Size:565 MB
Info Hash:158a4dc3d2dd1b91bbe5ac44f8c25627339d9003
Added By:UTR
Date Added:12-02-2019 15:41:05

Files

File List: 
 File Size
The Grand Tour S03E05 An Itchy Urus (1080p x265 10bit FS71 Joy).mkv565 MB



Loading...
Comments

There are currently no comments. Be the first one to write something !

Disclaimer: None of the files shown here are actually hosted or transmitted by this server. The links are provided solely by this site's users. The site moderation is also a service provided by the site's users. The administrator of this site (ettv.tv) cannot be held responsible for what its users post, or any other actions of its users. You may not use this site to distribute or download any material when you do not have the legal rights to do so. It is your own responsibility to adhere to these terms.