kgf sarkar Manikarnika star trek discovery thakrey Xxx kedarnath thackeray malayalam the accidental prime minister supernatural evo aquaman telugu odiyan the flash why cheat india great british bake off s09e10 vikings tushy 18.12 1080p.mp4-ktr charlie chaplin 2 1080P Hindi mirzapur ettv mr majnu the grand tour 2018 ita Adanga Maru Tin Star etmovies dtone uri EVO malayalam 2018 movies AQUAMAN ita Bumblebee ethd ITA zero etrg venom f2 1080p 2018 maari 2 Game Of Thrones viswasam TamilRockers Kannada simmba Kannada ddr simbha tushyraw 1080p.mp4-ktr mortal engines simba petta DTOne uri the surgical strike kung fu the legend Young justice tamil robot 2.0 it brazzers it 2017 2.0 thakre Njan Prakashan glass fgt bohemian rhapsody Star Trek Discovery S02E02 
Warning! Do not Download Without a VPN!
Your IP Address is .   Location is
Download and surf securely, stream unlimited and protect your personal data!
We strongly recommend using SpyOFF VPN!
Become Anonymous with SpyOFF
ETTV Recommended TV Shows
Greys.Anatomy.S15E14.HDTV.x264-KILLERS[ettv] torrent
The.Magicians.US.S04E05.WEB.x264-TBS[ettv] torrent
Survivor.S38E01.HDTV.x264-WRCR torrent
Chicago.Fire.S07E15.WEBRip.x264-PBS[ettv] torrent
Chicago.PD.S06E15.WEBRip.x264-PBS[ettv] torrent
Suits.S08E15.WEBRip.x264-PBS[ettv] torrent

ETTV Recommended SD
Ben.is.Back.2019.HDRip.XViD-ETRG torrent
Spider-Man.Into the Spider-Verse.2019.HDRip.XViD-ETRG torrent
Captain.Morten.and.the.Spider.Queen.2019.HDRip.XviD.AC3-EVO torrent
Dirty.Dealing.2019.HDRip.XviD.AC3-EVO torrent

ETTV Recommended HD
Green.Book.2019.1080p.WEB-DL.H264.AC3-EVO[EtHD] torrent
Instant.Family.2019.1080p.WEB-DL.H264.AC3-EVO[EtHD] torrent
Spider-Man.Into the Spider-Verse.2019.1080p.WEB-DL.H264.AC3-EVO[EtHD] torrent
Creed.II.2018.720p.BluRay.x264-DTS-HDChina[EtHD] torrent

ETTV Recommended UHD
The.Silence.of.the.Lambs.1991.2160p.UHDRip.x265.HDR.DTS-HD.MA.5.1-DTOne torrent
Robin.Hood.2018.UHD.BluRay.2160p.x265.Atmos.7.1-DTOne torrent
Big Pacific Season One 2018.2160p.UHD.BluRay.x265.SDR.FLAC.2.0-DTOne torrent
Close.Encounters.of.the.Third.Kind.1977.DC.4K.HDR.2160p.BDRip Ita Eng x265-NAHOM torrent

ETTV Recommended Cam
How to Train Your Dragon 3 2018 NEW 720p HDCAM-1XBET torrent
Happy Death Day 2U.2019.HDCAM.XViD.AC3-ETRG torrent
What Men Want 2019 HDCAM x264 AC3 MP4KiNG torrent
Alita Battle Angel 2019.HDCAM.V2.XViD.AC3-ETRG torrent

ETTV Recommended Foreign
 Daas Dev.2018.1080p.WEB-DL.AVC.AAC.DTOne torrent
Spider-Man: Into the Spider-Verse (2018)[720p - HDRip - HQ Audios [Tamil + Telugu + Hindi + Eng] - x264 - 1.2GB] torrent
Dance with the Devil (1997) UNRATED 720p BluRay x264 Eng Subs [Dual Audio] [Hindi DD 2.0 - English 5.1] Exclusive By -=!Dr.STAR!=- torrent
Skjelvet 2018 720p BluRay DD5.1 x264-NorTV[EtHD] torrent


Download Torrent "Strike Back S07E03 (1080p AMZN WEB-DL x265 HEVC 10bit AAC 5.1 Joy) [UTR]"

IMDB Details
Description:

N/A

Genre:

N/A

Download Torrent (Magnet)
Download Torrent (File)
Seeds: 172
Leechers: 6
Completed: 1,928 
Last Checked: 12-02-2019 15:38:54


Loading...
Details
Title:Strike Back S07E03 (1080p AMZN WEB-DL x265 HEVC 10bit AAC 5.1 Joy) [UTR]
Description:
[align=center]




Media Information
General
Format                                   : Matroska
Format version                           : Version 4 / Version 2
File size                                : 494 MiB
Duration                                 : 49 min 53 s
Overall bit rate                         : 1 385 kb/s
Movie name                               : Strike Back S07E03  (1080p x265 10bit Joy)
Encoded date                             : UTC 2019-02-11 16:05:13
Writing application                      : mkvmerge v28.2.0 ('The Awakening') 64-bit
Writing library                          : libebml v1.3.6 + libmatroska v1.4.9
Writing frontend                         : StaxRip v2.0, a JoyBell Encode

Video
ID                                       : 1
Format                                   : HEVC
Format/Info                              : High Efficiency Video Coding
Format profile                           : Main [email protected]@Main
Codec ID                                 : V_MPEGH/ISO/HEVC
Duration                                 : 49 min 52 s
Bit rate                                 : 1 201 kb/s
Width                                    : 1 920 pixels
Height                                   : 1 080 pixels
Display aspect ratio                     : 16:9
Frame rate mode                          : Constant
Frame rate                               : 23.976 (24000/1001) FPS
Color space                              : YUV
Chroma subsampling                       : 4:2:0
Bit depth                                : 10 bits
Bits/(Pixel*Frame)                       : 0.024
Stream size                              : 428 MiB (87%)
Writing library                          : x265 2.9+15-81373aab81df:[Windows][MSVC 1916][64 bit] 10bit
Encoding settings                        : cpuid=1111039 / frame-threads=3 / numa-pools=12 / wpp / no-pmode / no-pme / no-psnr / ssim / log-level=2 / input-csp=1 / input-res=1920x1080 / interlace=0 / total-frames=71760 / level-idc=0 / high-tier=1 / uhd-bd=0 / ref=4 / no-allow-non-conformance / no-repeat-headers / annexb / no-aud / no-hrd / info / hash=0 / no-temporal-layers / open-gop / min-keyint=23 / keyint=250 / gop-lookahead=0 / bframes=6 / b-adapt=2 / b-pyramid / bframe-bias=0 / rc-lookahead=80 / lookahead-slices=4 / scenecut=40 / radl=0 / no-splice / no-intra-refresh / ctu=64 / min-cu-size=8 / no-rect / no-amp / max-tu-size=32 / tu-inter-depth=1 / tu-intra-depth=1 / limit-tu=0 / rdoq-level=2 / dynamic-rd=0.00 / ssim-rd / signhide / no-tskip / nr-intra=0 / nr-inter=0 / no-constrained-intra / strong-intra-smoothing / max-merge=3 / limit-refs=3 / limit-modes / me=3 / subme=3 / merange=57 / temporal-mvp / weightp / no-weightb / no-analyze-src-pics / deblock=0:0 / sao / no-sao-non-deblock / rd=4 / no-early-skip / rskip / no-fast-intra / no-tskip-fast / no-cu-lossless / no-b-intra / no-splitrd-skip / rdpenalty=0 / psy-rd=0.00 / psy-rdoq=1.00 / no-rd-refine / no-lossless / cbqpoffs=0 / crqpoffs=0 / rc=abr / bitrate=1200 / qcomp=0.60 / qpstep=4 / stats-write=0 / stats-read=2 / cplxblur=20.0 / qblur=0.5 / ipratio=1.40 / pbratio=1.30 / aq-mode=1 / aq-strength=0.80 / cutree / zone-count=0 / no-strict-cbr / qg-size=32 / no-rc-grain / qpmax=69 / qpmin=0 / no-const-vbv / sar=0 / overscan=0 / videoformat=5 / range=0 / colorprim=2 / transfer=2 / colormatrix=1 / chromaloc=0 / display-window=0 / max-cll=0,0 / min-luma=0 / max-luma=1023 / log2-max-poc-lsb=8 / vui-timing-info / vui-hrd-info / slices=1 / no-opt-qp-pps / no-opt-ref-list-length-pps / multi-pass-opt-rps / scenecut-bias=0.05 / no-opt-cu-delta-qp / no-aq-motion / no-hdr / no-hdr-opt / no-dhdr10-opt / no-idr-recovery-sei / analysis-reuse-level=10 / scale-factor=0 / refine-intra=0 / refine-inter=0 / refine-mv=0 / limit-sao / ctu-info=0 / no-lowpass-dct / refine-mv-type=0 / copy-pic=1 / max-ausize-factor=1.0 / no-dynamic-refine / no-single-sei
Default                                  : Yes
Forced                                   : No
Color range                              : Limited
Matrix coefficients                      : BT.709

Audio
ID                                       : 2
Format                                   : AAC
Format/Info                              : Advanced Audio Codec
Format profile                           : HE-AAC / LC
Codec ID                                 : A_AAC
Duration                                 : 49 min 53 s
Bit rate                                 : 182 kb/s
Channel(s)                               : 6 channels
Channel positions                        : Front: L C R, Side: L R, LFE
Sampling rate                            : 48.0 kHz / 24.0 kHz
Frame rate                               : 23.438 FPS (1024 spf)
Compression mode                         : Lossy
Delay relative to video                  : 31 ms
Stream size                              : 64.9 MiB (13%)
Language                                 : English
Default                                  : No
Forced                                   : No

Subtitle
ID                                       : 3
Format                                   : UTF-8
Codec ID                                 : S_TEXT/UTF8
Codec ID/Info                            : UTF-8 Plain Text
Duration                                 : 49 min 46 s
Bit rate                                 : 73 b/s
Count of elements                        : 1053
Stream size                              : 26.6 KiB (0%)
Language                                 : English
Default                                  : No
Forced                                   : No

Source Information
Release: Strike.Back.S07E03.1080p.AMZN.WEBRip.DDP5.1.x264-NTb[rarbg]  (3.35 GB)

[/align]
Category:TV > HEVC/x265
Lang:English  English
Total Size:494 MB
Info Hash:b9a5a7409559bc7998e334d9702d9abcd37e2b7f
Added By:UTR
Date Added:12-02-2019 15:38:46

Files

File List: 
 File Size
Strike Back S07E03 (1080p x265 10bit FS98 Joy).mkv494 MB



Loading...
Comments

There are currently no comments. Be the first one to write something !

Disclaimer: None of the files shown here are actually hosted or transmitted by this server. The links are provided solely by this site's users. The site moderation is also a service provided by the site's users. The administrator of this site (ettv.tv) cannot be held responsible for what its users post, or any other actions of its users. You may not use this site to distribute or download any material when you do not have the legal rights to do so. It is your own responsibility to adhere to these terms.